Kamisama no Inai Nichiyoubi BD Sub Indo Batch Eps 1-12 + OVA Lengkap | ORPALIS GdPicture NET Document Imaging SDK 8.5.22 | L'Arme fatale S03E05 VOSTFR HDTV
 


 

Filecrypt zeigt vereinzelt Files als "n/a". Die Downloads sind trotzdem komplett.

DNS SERVER AENDERNum der staatlichen Zensur zu umgehen. Sollten wir von eurem Provider geseprrt werden, nutzt den TOR BROWSER oder ändert euren DNS SERVER.

Filmwünsche können bei uns im Forum abgegeben werden

Wir Speichern Nicht




 
 
 
Top Releases
Die.brilliante.Mademoiselle....
Die.brilliante.Mademoiselle....
Das.Geheimniss.von.Marrowbon...
Das.Geheimniss.von.Marrowbon...
Final.Take-Off.Einsame.Entsc...
Passengers.2016.German.AC3.D...
Wolfsnaechte.2018.German.AC3...
Brawl.in.Cell.Block.99.2017....
Gravity.Diamond.Luxe.Edition...
Middle.School.The.Worst.Year...

Cinedubs
Die.Unglaublichen.2.German.D...
Die.Unglaublichen.2.German.D...
Blame.Verbotenes.Verlangen.G...
Blame.Verbotenes.Verlangen.G...
Bad.Spies.2018.German.AC3MD....
Bad.Spies.2018.German.AC3MD....
MEG.Biss.bald.2018.German.AC...
Slender.Man.2018.GERMAN.DL.A...
Slender.Man.2018.GERMAN.DL.A...
MEG.Biss.bald.2018.German.AC...

Neuerscheinungen 2017-18
Shock.und.Awe.Krieg.der.Lueg...
Shock.und.Awe.Krieg.der.Lueg...
Hexe.Lilli.rettet.Weihnachte...
Hexe.Lilli.rettet.Weihnachte...
211.Cops.under.Fire.2018.Ger...
211.Cops.under.Fire.2018.Ger...
The.Strangers.Opfernacht.201...
The.Strangers.Opfernacht.201...
Serdar.Somuncu.H2.Universe.D...
Serdar.Somuncu.H2.Universe.D...

XXX
BrownBunnies.18.10.05.Demi.S...
MistressT.18.01.02.Virgin.Hu...
ImmoralLive.18.10.04.Georgie...
Spizoo.18.10.01.Krissy.Lynn....
ExxxtraSmall.18.10.04.Demi.S...
Nubiles.18.10.02.Cristin.Bro...
POVLife.18.10.01.Addison.Lee...
MistressT.17.09.01.Sissy.Tra...
HerLimit.18.10.05.Ashley.Woo...
ATKGirlfriends.18.10.03.Arie...
HornyDoctor.18.10.05.Aria.Ro...
SweetheartVideo.18.10.01.Abi...
Cum4K.18.10.02.Mia.Collins.C...
PrivateSociety.18.10.02.Gang...
GermanGooGirls.18.10.02.Dais...
HarmonyVision.18.10.04.Lady....
Pantyhosed4U.18.10.03.Amber....
FamilyStrokes.18.10.04.Esper...
GapeLand.18.10.02.Lilit.Swee...
WankItNow.17.11.16.Kellie.Ob...

3D
Detective.Dee.und.die.Legend...
Detective.Dee.und.die.Legend...
Skyscraper.3D.German.DL.AC3....
Ant-Man.and.the.Wasp.2018.3D...
Jurassic.World.Das.gefallene...
Jurassic.World.Das.gefallene...
Best.of.3D.vol.10.-.12.GERMA...
Die.Biene.Maja.2.Die.Honigsp...
Sharknado.6.The.Last.One.3D....
Solo.A.Star.Wars.Story.3D.20...
Solo.A.Star.Wars.Story.3D.20...
Die.Biene.Maja.2.Die.Honigsp...
Avengers.Infinity.War.3D.201...
Avengers.Infinity.War.3D.201...
Rampage.Big.Meets.Bigger.3D....

Old_Stuff
Species.IV.Das.Erwachen.2007...
Species.IV.Das.Erwachen.2007...
Hotel.Transsilvanien.2012.Ge...
The.Dead.2010.German.DL.1080...
The.Dead.2.India.2013.German...
Britney.Spears.Live.The.Femm...
Buffy.The.Vampire.Slayer.199...
IMAX.Ride.Around.The.World.2...
Schimanski.-.Duisburg.Ruhror...
Akte.X.S02.German.DTS.DL.108...
How.I.Met.Your.Mother.S02.Ge...
Akte.X.S01.German.DTS.DL.108...
Den.Himmel.gibts.echt.DL.108...
Vikings.S02.German.DL.1080p....
Be.Kind.Rewind.Abgedreht.200...

Filme
Wen.die.Geister.lieben.2008....
Surf.Nazis.Must.Die.1987.AC3...
Einsam.sind.die.Tapferen.196...
F.117A.Stealth.War.1992.Germ...
Fritz.Lang.2016.German.1080p...
Bad.Boys.-.Harte.Jungs.1995....
Am.Himmel.von.China.1945.Ger...
Das.schweigende.Klassenzimme...
The.Darkest.Minds.-.Die.Uebe...
Black.Lightning.S02.GERMAN.D...
Black.Lightning.S02.GERMAN.D...
Crazy.Ex.Girlfriend.S03.Germ...
Crazy.Ex.Girlfriend.S03.Germ...
The.Big.Bang.Theory.S11.Germ...
The.Big.Bang.Theory.S11.Germ...
The.Walking.Dead.S09.GERMAN....
The.Walking.Dead.S09.GERMAN....
Krypton.S01.German.DD51.Dubb...
Die.letzte.Front.Defenders.o...
The.Blacklist.S05D01-6.MULTi...
Der.Schakal.1997.German.DTS....
Tetsuo.The.Iron.Man.1989.Ger...
Ein.Platz.im.Herzen.1984.Ger...
The.Blacklist.S05.COMPLETE.G...

 
 
Blame.Verbotenes.Verlangen.German.DL.AC3.Dubbed.1080p.WEB.h264-PsO

Jahr: 2018
Genre: Drama
Sprache: Deutsch AC3 | Englisch AC3
Laufzeit: 1h 39mn
Bitrate: 5 121 Kbps
Format: MKV
Größe: 3.56 GiB
Release:

Beschreibung:

Die stille und psychisch labile Abigail Grey (Quinn Shephard) kommt nach einer Krankheit zum ersten Mal seit längerer Zeit wieder zurück in ihre Highschool und sieht sich dort sogleich den Provokationen ihrer manipulativen Mitschülerin Melissa Bowman (Nadia Alexander) ausgesetzt. Als Abigail zusätzlich die begehrte Hauptrolle eines Schultheaterstücks bekommt, verhärten sich die Fronten der beiden jungen Frauen abermals. Doch Melissa erkennt, dass sie ein Ass im Ärmel hat, als sie mitbekommt, dass Abigail und der neue, attraktive Aushilfslehrer Jeremy Woods (Chris Messina) sich verbotenerweise beginnen, einander anzunähern. Und Melissa ist jedes Mittel recht, um ihre stille Rivalin zu bekämpfen – selbst wenn das bedeutet, dunkle Geheimnisse ans Licht zu bringen…



Complete name                            : pso-blame_web.1080p.mkv
Format                                   : Matroska
Format version                           : Version 4 / Version 2
File size                                : 3.56 GiB
Duration                                 : 1h 39mn
Overall bit rate                         : 5 121 Kbps
Encoded date                             : UTC 2018-10-21 21:27:49
Writing application                      : mkvmerge v8.0.0 ('Til The Day That I Die') 64bit
Writing library                          : libebml v1.3.1 + libmatroska v1.4.2
DURATION                                 : 01:39:25.888000000
NUMBER_OF_FRAMES                         : 186434
NUMBER_OF_BYTES                          : 167044864
_STATISTICS_WRITING_APP                  : mkvmerge v8.0.0 ('Til The Day That I Die') 64bit
_STATISTICS_WRITING_DATE_UTC             : 2018-10-21 21:27:49
_STATISTICS_TAGS                         : BPS DURATION NUMBER_OF_FRAMES NUMBER_OF_BYTES

Video
ID                                       : 1
Format                                   : AVC
Format/Info                              : Advanced Video Codec
Format profile                           : High@L4.0
Format settings, CABAC                   : Yes
Format settings, ReFrames                : 5 frames
Codec ID                                 : V_MPEG4/ISO/AVC
Duration                                 : 1h 39mn
Bit rate                                 : 4 412 Kbps
Width                                    : 1 920 pixels
Height                                   : 796 pixels
Display aspect ratio                     : 2.40:1
Frame rate mode                          : Constant
Frame rate                               : 23.976 fps
Color space                              : YUV
Chroma subsampling                       : 4:2:0
Bit depth                                : 8 bits
Scan type                                : Progressive
Bits/(Pixel*Frame)                       : 0.120
Stream size                              : 3.06 GiB (86%)
Language                                 : English
Default                                  : Yes
Forced                                   : No
Color primaries                          : BT.709
Transfer characteristics                 : BT.709
Matrix coefficients                      : BT.709

Audio #1
ID                                       : 2
Format                                   : AC-3
Format/Info                              : Audio Coding 3
Mode extension                           : CM (complete main)
Format settings, Endianness              : Big
Codec ID                                 : A_AC3
Duration                                 : 1h 39mn
Bit rate mode                            : Constant
Bit rate                                 : 224 Kbps
Channel(s)                               : 2 channels
Channel positions                        : Front: L R
Sampling rate                            : 48.0 KHz
Bit depth                                : 16 bits
Compression mode                         : Lossy
Delay relative to video                  : -42ms
Stream size                              : 159 MiB (4%)
Language                                 : German
Default                                  : Yes
Forced                                   : Yes

Audio #2
ID                                       : 3
Format                                   : AC-3
Format/Info                              : Audio Coding 3
Mode extension                           : CM (complete main)
Format settings, Endianness              : Big
Codec ID                                 : A_AC3
Duration                                 : 1h 39mn
Bit rate mode                            : Constant
Bit rate                                 : 384 Kbps
Channel(s)                               : 6 channels
Channel positions                        : Front: L C R, Side: L R, LFE
Sampling rate                            : 48.0 KHz
Bit depth                                : 16 bits
Compression mode                         : Lossy
Delay relative to video                  : -42ms
Stream size                              : 273 MiB (7%)
Language                                 : English
Default                                  : No
Forced                                   : No


Download:
Share Online Share OnlineShare OnlineShare Online
 

Kommentare