The 100 Saison 4 Vostfr HD 720p | Esportes | Marudhar Express 2018
 


 

Filecrypt zeigt vereinzelt Files als "n/a". Die Downloads sind trotzdem komplett.

DNS SERVER AENDERNum der staatlichen Zensur zu umgehen. Sollten wir von eurem Provider geseprrt werden, nutzt den TOR BROWSER oder ändert euren DNS SERVER.

Filmwünsche können bei uns im Forum abgegeben werden

Wir Speichern Nicht




 
 
 
Top Releases
Wolfsnaechte.2018.German.AC3...
Brawl.in.Cell.Block.99.2017....
Gravity.Diamond.Luxe.Edition...
Middle.School.The.Worst.Year...
Brawl.in.Cell.Block.99.2017....
Mindhorn.2016.German.AC3.DL....
Die.letzte.Party.deines.Lebe...
Sand.Castle.2017.German.AC3....
Skyscraper.2018.German.DL.AC...
Brawl.in.Cell.Block.99.2017....

Cinedubs
Bad.Spies.2018.German.AC3MD....
Bad.Spies.2018.German.AC3MD....
MEG.Biss.bald.2018.German.AC...
Slender.Man.2018.GERMAN.DL.A...
Slender.Man.2018.GERMAN.DL.A...
MEG.Biss.bald.2018.German.AC...
MEG.Biss.bald.2018.German.AC...
Searching.2018.German.AC3MD....
Searching.2018.German.AC3MD....
211.Cops.Under.Fire.2018.Ger...

Neuerscheinungen 2017-18
Am.Anfang.war.das.Feuer.La.g...
Uncle.Drew.2018.German.AC3.D...
Uncle.Drew.2018.German.AC3.D...
Wildes.Herz.2017.MULTi.COMPL...
Die.Biene.Maja.2.Die.Honigsp...
Die.Biene.Maja.2.Die.Honigsp...
Wildes.Herz.2017.German.1080...
Wildes.Herz.2017.German.1080...
Wildes.Herz.2017.German.720p...
Der.Schwimmer.1968.German.AC...

XXX
VIPArea.18.10.01.Prinzzess.P...
JapanHDV.18.10.02.Yuna.Hoshi...
Swallowed.18.09.30.Gia.Derza...
MistressT.18.03.14.Cum.On.Yo...
CherryPimps.18.10.03.Summer....
MistressT.18.03.03.MILF.Show...
MistressT.18.04.13.Sniff.Str...
Private.Specials.230.Russian...
PlayboyPlus.18.10.01.Olivia....
GloryHoleSecrets.18.10.05.Li...
Tushy.18.10.03.Eveline.Della...
DoctorAdventures.18.10.05.As...
PlumperPass.18.10.05.Harmony...
JeshByJesh.18.10.04.Gina.Val...
WankItNow.18.10.03.Natalia.F...
DorcelClub.18.10.01.Clea.Gau...
TeensLoveHugeCocks.18.10.03....
KarupsHA.18.09.29.Victoria.V...
HandsOnHardcore.18.10.03.Gin...
SlimeWave.18.10.01.Domme.Mak...

3D
Detective.Dee.und.die.Legend...
Detective.Dee.und.die.Legend...
Skyscraper.3D.German.DL.AC3....
Ant-Man.and.the.Wasp.2018.3D...
Jurassic.World.Das.gefallene...
Jurassic.World.Das.gefallene...
Best.of.3D.vol.10.-.12.GERMA...
Die.Biene.Maja.2.Die.Honigsp...
Sharknado.6.The.Last.One.3D....
Solo.A.Star.Wars.Story.3D.20...
Solo.A.Star.Wars.Story.3D.20...
Die.Biene.Maja.2.Die.Honigsp...
Avengers.Infinity.War.3D.201...
Avengers.Infinity.War.3D.201...
Rampage.Big.Meets.Bigger.3D....

Old_Stuff
Species.IV.Das.Erwachen.2007...
Species.IV.Das.Erwachen.2007...
Hotel.Transsilvanien.2012.Ge...
The.Dead.2010.German.DL.1080...
The.Dead.2.India.2013.German...
Britney.Spears.Live.The.Femm...
Buffy.The.Vampire.Slayer.199...
IMAX.Ride.Around.The.World.2...
Schimanski.-.Duisburg.Ruhror...
Akte.X.S02.German.DTS.DL.108...
How.I.Met.Your.Mother.S02.Ge...
Akte.X.S01.German.DTS.DL.108...
Den.Himmel.gibts.echt.DL.108...
Vikings.S02.German.DL.1080p....
Be.Kind.Rewind.Abgedreht.200...

Filme
Suspiria.1977.German.DL.DTSD...
Sweeney.Todd.The.Demon.Barbe...
Eine.kleine.Geschichte.ueber...
Eine.Karte.der.Klaenge.von.T...
Eine.Hochzeit.und.andere.Hin...
Wolfsnaechte.2018.German.DL....
Der.Augenzeuge.1981.German.D...
Ein.Brief.an.drei.Frauen.194...
Living.in.Oblivion.20th.Anni...
Antiviral.2012.German.DTS.DL...
Eine.Frau.unter.Einfluss.197...
Eine.fuer.4.Unterwegs.in.Sac...
Jessica.und.das.Rentier.1989...
Eine.Gefaehrliche.Affaere.19...
Blackout.Ein.Detektiv.sucht....
Der.Schwimmer.1968.German.AC...
The.Blacklist.S05D01-4.MULTi...
Undisputed.Sieg.ohne.Ruhm.20...
Requiem.for.a.Dream.2000.Ger...
The.Big.Lebowski.1998.MULTi....
Eine.Faust.geht.nach.Westen....
Eine.Frage.der.Liebe.2003.Ge...
Eine.Frau.die.alles.weiss.19...
Eine.Familie.German.1080p.Bl...

 
 
Wolfsnaechte.2018.German.AC3D.DL.1080p.WebHD.x265-FuN

Jahr: 2018
Genre: Abenteuer, Drama
Sprache: Deutsch AC3 | Englisch AC3
Laufzeit: 2h 5mn
Bitrate: 1 877 Kbps
Format: MKV
Größe: 1.65 GiB
Release:

Beschreibung:

Der pensionierte Wolf-Experte Russell Core (Jeffrey Wright) lässt die Zivilisation hinter sich und reist in den Norden Alaskas, wo die junge Mutter Medora Slone (Riley Keough) lebt, deren Sohn von einem Wolfsrudel getötet wurde. Als Core sich mit ihr auf die Suche nach den Raubtieren begibt, entwickeln die beiden einsamen Seelen eine merkwürdige und gefährliche Beziehung zueinander. Und als dann noch Medoras Ehemann Vernon (Alexander Skarsgård) aus dem Irakkrieg zurückkehrt und vom Schicksal seines Sohnes erfährt, verlieren sich alle in einer gnadenlosen Spirale der Gewalt, in die auch der Polizist Donald Marium (James Badge Dale) verwickelt wird…




Format                                   : Matroska
Format version                           : Version 4 / Version 2
File size                                : 1.65 GiB
Duration                                 : 2h 5mn
Overall bit rate                         : 1 877 Kbps
Encoded date                             : UTC 2018-10-21 03:18:46
Writing application                      : HandBrake 20180926214903-4981e11-master 2018092701
Writing library                          : Lavf58.12.100

Video
ID                                       : 1
Format                                   : HEVC
Format/Info                              : High Efficiency Video Coding
Format profile                           : Main@L4.0
Codec ID                                 : V_MPEGH/ISO/HEVC
Duration                                 : 2h 5mn
Bit rate                                 : 1 071 Kbps
Width                                    : 1 920 pixels
Height                                   : 804 pixels
Display aspect ratio                     : 2.40:1
Frame rate mode                          : Constant
Frame rate                               : 23.976 fps
Color space                              : YUV
Chroma subsampling                       : 4:2:0
Bit depth                                : 8 bits
Bits/(Pixel*Frame)                       : 0.029
Stream size                              : 964 MiB (57%)
Writing library                          : x265 2.8:[Windows][GCC 7.1.0][64 bit] 8bit+10bit+12bit
Encoding settings                        : cpuid=1111039 / frame-threads=3 / numa-pools=8 / wpp / no-pmode / no-pme / no-psnr / no-ssim / log-level=2 / input-csp=1 / input-res=1920x804 / interlace=0 / total-frames=0 / level-idc=0 / high-tier=1 / uhd-bd=0 / ref=3 / no-allow-non-conformance / no-repeat-headers / annexb / no-aud / no-hrd / info / hash=0 / no-temporal-layers / open-gop / min-keyint=24 / keyint=240 / gop-lookahead=0 / bframes=4 / b-adapt=2 / b-pyramid / bframe-bias=0 / rc-lookahead=20 / lookahead-slices=5 / scenecut=40 / radl=0 / no-intra-refresh / ctu=64 / min-cu-size=8 / no-rect / no-amp / max-tu-size=32 / tu-inter-depth=1 / tu-intra-depth=1 / limit-tu=0 / rdoq-level=0 / dynamic-rd=0.00 / no-ssim-rd / signhide / no-tskip / nr-intra=0 / nr-inter=0 / no-constrained-intra / no-strong-intra-smoothing / max-merge=2 / limit-refs=3 / no-limit-modes / me=1 / subme=2 / merange=57 / temporal-mvp / weightp / no-weightb / no-analyze-src-pics / deblock=0:0 / no-sao / no-sao-non-deblock / rd=3 / no-early-skip / rskip / no-fast-intra / no-tskip-fast / no-cu-lossless / no-b-intra / no-splitrd-skip / rdpenalty=0 / psy-rd=2.00 / psy-rdoq=0.00 / no-rd-refine / no-lossless / cbqpoffs=0 / crqpoffs=0 / rc=crf / crf=20.0 / qcomp=0.60 / qpstep=4 / stats-write=0 / stats-read=0 / ipratio=1.40 / pbratio=1.30 / aq-mode=1 / aq-strength=1.00 / cutree / zone-count=0 / no-strict-cbr / qg-size=32 / no-rc-grain / qpmax=69 / qpmin=0 / no-const-vbv / sar=1 / overscan=0 / videoformat=5 / range=0 / colorprim=1 / transfer=1 / colormatrix=1 / chromaloc=0 / display-window=0 / max-cll=0,0 / min-luma=0 / max-luma=255 / log2-max-poc-lsb=8 / vui-timing-info / vui-hrd-info / slices=1 / no-opt-qp-pps / no-opt-ref-list-length-pps / no-multi-pass-opt-rps / scenecut-bias=0.05 / no-opt-cu-delta-qp / no-aq-motion / no-hdr / no-hdr-opt / no-dhdr10-opt / no-idr-recovery-sei / analysis-reuse-level=5 / scale-factor=0 / refine-intra=0 / refine-inter=0 / refine-mv=0 / no-limit-sao / ctu-info=0 / no-lowpass-dct / refine-mv-type=0 / copy-pic=1 / max-ausize-factor=1.0 / no-dynamic-refine / no-single-sei
Default                                  : Yes
Forced                                   : No
DURATION                                 : 02:05:15.513000000

Audio #1
ID                                       : 2
Format                                   : AC-3
Format/Info                              : Audio Coding 3
Mode extension                           : CM (complete main)
Format settings, Endianness              : Big
Codec ID                                 : A_AC3
Duration                                 : 2h 5mn
Bit rate mode                            : Constant
Bit rate                                 : 384 Kbps
Channel(s)                               : 6 channels
Channel positions                        : Front: L C R, Side: L R, LFE
Sampling rate                            : 48.0 KHz
Bit depth                                : 16 bits
Compression mode                         : Lossy
Delay relative to video                  : -5ms
Stream size                              : 346 MiB (20%)
Title                                    : Surround
Language                                 : German
Default                                  : Yes
Forced                                   : No
DURATION                                 : 02:05:50.240000000

Audio #2
ID                                       : 3
Format                                   : AC-3
Format/Info                              : Audio Coding 3
Mode extension                           : CM (complete main)
Format settings, Endianness              : Big
Codec ID                                 : A_AC3
Duration                                 : 2h 5mn
Bit rate mode                            : Constant
Bit rate                                 : 384 Kbps
Channel(s)                               : 6 channels
Channel positions                        : Front: L C R, Side: L R, LFE
Sampling rate                            : 48.0 KHz
Bit depth                                : 16 bits
Compression mode                         : Lossy
Delay relative to video                  : -5ms
Stream size                              : 346 MiB (20%)
Title                                    : Surround
Language                                 : German
Default                                  : No
Forced                                   : No
DURATION                                 : 02:05:50.240000000



Download:
Share Online Share OnlineShare OnlineShare Online
 

Kommentare