PixelPhoto - The Ultimate Image Sharing Photo Social Network Platform | Reproducir | Perfect Hair Forever (7)
 


 

Filecrypt zeigt vereinzelt Files als "n/a". Die Downloads sind trotzdem komplett.

DNS SERVER AENDERNum der staatlichen Zensur zu umgehen. Sollten wir von eurem Provider geseprrt werden, nutzt den TOR BROWSER oder ändert euren DNS SERVER.

Filmwünsche können bei uns im Forum abgegeben werden

Wir Speichern Nicht




 
 
 
Top Releases
The.Discovery.2017.German.AC...
Errementari.Der.Schmied.und....
Detective.Dee.und.die.Legend...
Detective.Dee.und.die.Legend...
Borning.The.Fast.and.the.Fun...
Hereditary.Das.Vermaechtnis....
Kedi.Von.Katzen.und.Menschen...
Skyscraper.German.DL.AC3.Dub...
Skyscraper.German.DL.AC3.Dub...
Hereditary.Das.Vermaechtnis....

Cinedubs
Bad.Spies.2018.German.AC3MD....
Bad.Spies.2018.German.AC3MD....
MEG.Biss.bald.2018.German.AC...
Slender.Man.2018.GERMAN.DL.A...
Slender.Man.2018.GERMAN.DL.A...
MEG.Biss.bald.2018.German.AC...
MEG.Biss.bald.2018.German.AC...
Searching.2018.German.AC3MD....
Searching.2018.German.AC3MD....
211.Cops.Under.Fire.2018.Ger...

Neuerscheinungen 2017-18
The.Do-Over.2016.German.AC3....
The.First.Purge.2018.German....
The.First.Purge.2018.German....
The.Darkest.Minds.Die.Ueberl...
The.Darkest.Minds.Die.Ueberl...
Antiviral.2012.MULTI.COMPLET...
Antiviral.2012.GERMAN.DL.108...
Patient.Zero.2018.German.DTS...
Patient.Zero.2018.German.DTS...
The.Jurassic.Games.2018.GERM...

XXX
EverythingButt.18.10.05.Lise...
Spizoo.18.10.05.Christy.Love...
BurningAngel.18.10.02.Larkin...
KarupsHA.18.10.01.Scarlett.J...
Seduced.By.My.Secretary.XXX....
HotLegsAndFeet.18.10.02.Inna...
Milfty.18.10.05.Prestyn.Lee....
KarupsHA.18.10.04.Scarlett.J...
PornMegaLoad.18.10.04.Andrea...
VivThomas.18.10.05.Luna.Cora...
Foute.Meiden.Time.For.A.Full...
WankItNow.17.11.15.Sophia.Sm...
Mylfed.18.09.30.Kenzie.Taylo...
PixAndVideo.18.10.01.Lexy.Go...
SimplyAnal.18.10.04.Kerry.Ch...
MistressT.18.02.24.Just.Fuck...
TheLifeErotic.18.10.02.Bree....
MistressT.17.12.15.Goddess.P...
SweetSinner.18.10.02.Karlee....
TheUpperFloor.18.10.05.Aiden...

3D
Detective.Dee.und.die.Legend...
Detective.Dee.und.die.Legend...
Skyscraper.3D.German.DL.AC3....
Ant-Man.and.the.Wasp.2018.3D...
Jurassic.World.Das.gefallene...
Jurassic.World.Das.gefallene...
Best.of.3D.vol.10.-.12.GERMA...
Die.Biene.Maja.2.Die.Honigsp...
Sharknado.6.The.Last.One.3D....
Solo.A.Star.Wars.Story.3D.20...
Solo.A.Star.Wars.Story.3D.20...
Die.Biene.Maja.2.Die.Honigsp...
Avengers.Infinity.War.3D.201...
Avengers.Infinity.War.3D.201...
Rampage.Big.Meets.Bigger.3D....

Old_Stuff
Species.IV.Das.Erwachen.2007...
Species.IV.Das.Erwachen.2007...
Hotel.Transsilvanien.2012.Ge...
The.Dead.2010.German.DL.1080...
The.Dead.2.India.2013.German...
Britney.Spears.Live.The.Femm...
Buffy.The.Vampire.Slayer.199...
IMAX.Ride.Around.The.World.2...
Schimanski.-.Duisburg.Ruhror...
Akte.X.S02.German.DTS.DL.108...
How.I.Met.Your.Mother.S02.Ge...
Akte.X.S01.German.DTS.DL.108...
Den.Himmel.gibts.echt.DL.108...
Vikings.S02.German.DL.1080p....
Be.Kind.Rewind.Abgedreht.200...

Filme
Ein.schoenes.Maedchen.wie.ic...
Marvels.Daredevil.S03.GERMAN...
Marvels.Daredevil.S03.GERMAN...
Krypton.S01.German.DD51.Dubb...
Female.Justice.aka.Blonde.Ra...
The.Outpost.S01.GERMAN.720p....
iZombie.S04.German.DD51.Dubb...
iZombie.S04.German.DD51.Dubb...
Humans.S03.German.DD20.Dubbe...
Ein.Sommer.in.New.York.Germa...
The.First.Purge.2018.German....
The.First.Purge.2018.German....
Ummah.Unter.Freunden.2013.Ge...
Valley.of.Love.Tal.der.Liebe...
Uncle.Nick.2015.German.DL.10...
Hereditary.Das.Vermaechtnis....
Hereditary.Das.Vermaechtnis....
Die.letzte.Party.deines.Lebe...
Das.ist.erst.der.Anfang.2017...
Violette.2013.German.1080p.B...
Die.Frauen.1939.German.AC3D....
Die.bitteren.Traenen.der.Pet...
Das.Leichenhaus.der.lebenden...
Tote.pflastern.seinen.Weg.19...

 
 
Krypton.S01.German.DD51.Dubbed.DL.1080p.AmazonHD.x264-TVS

Jahr: 2018
Genre: Action | Abenteuer | Drama
Sprache: Deutsch AC3 | Englisch AC3
Laufzeit: 41min je Folge
Bitrate: 8600 Kbps
Format: MKV
Größe: 2,5 GB je Folge
Release:

Beschreibung:

Rund 200 Jahre bevor Kal-El alias Superman auf die Erde flüchtete, war seine Heimat Krypton ein umkämpfter Planet. Im Mittelpunkt das zerstrittene Haus El. Allein Supermans Großvater Seg-El (Cameron Cuffe) leistet Widerstand und gibt alles dafür, wieder Hoffnung und Gleichheit nach Krypton zu bringen. Dabei muss er sich gegen die verbitterten Mitglieder des Hauses El stellen, die, jeder für sich, um die alleinige Macht auf dem Planeten Krypton kämpfen.

 

enthaltene Folgen:

Krypton.S01E01.Das.Erbe.German.DD51.Dubbed.DL.1080p.AmazonHD.x264-TVS NEU

Krypton.S01E02.Das.Haus.von.El.German.DD51.Dubbed.DL.1080p.AmazonHD.x264-TVS NEU



General
Complete name                            : Krypton.S01E01.Das.Erbe.German.DD51.Dubbed.DL.1080p.AmazonHD.x264-TVS\tvs-krypton-dd51-ded-dl-18p-azhd-x264-101.mkv
Format                                   : Matroska
Format version                           : Version 4 / Version 2
File size                                : 2.80 GiB
Duration                                 : 41mn 20s
Overall bit rate mode                    : Variable
Overall bit rate                         : 9 710 Kbps
Encoded date                             : UTC 2018-10-19 11:42:45
Writing application                      : mkvmerge v21.0.0 ('Tardigrades Will Inherit The Earth') 64-bit
Writing library                          : libebml v1.3.5 + libmatroska v1.4.8
DURATION                                 : 00:41:06.014000000
NUMBER_OF_FRAMES                         : 810
NUMBER_OF_BYTES                          : 21347
_STATISTICS_WRITING_APP                  : mkvmerge v21.0.0 ('Tardigrades Will Inherit The Earth') 64-bit
_STATISTICS_WRITING_DATE_UTC             : 2018-10-19 11:42:45
_STATISTICS_TAGS                         : BPS DURATION NUMBER_OF_FRAMES NUMBER_OF_BYTES

Video
ID                                       : 1
Format                                   : AVC
Format/Info                              : Advanced Video Codec
Format profile                           : High@L4.0
Format settings, CABAC                   : Yes
Format settings, ReFrames                : 4 frames
Codec ID                                 : V_MPEG4/ISO/AVC
Duration                                 : 41mn 20s
Bit rate mode                            : Variable
Bit rate                                 : 8 621 Kbps
Maximum bit rate                         : 15.0 Mbps
Width                                    : 1 920 pixels
Height                                   : 1 080 pixels
Display aspect ratio                     : 16:9
Frame rate mode                          : Constant
Frame rate                               : 25.000 fps
Color space                              : YUV
Chroma subsampling                       : 4:2:0
Bit depth                                : 8 bits
Scan type                                : Progressive
Bits/(Pixel*Frame)                       : 0.166
Stream size                              : 2.49 GiB (89%)
Default                                  : Yes
Forced                                   : No
Color primaries                          : BT.709
Transfer characteristics                 : BT.709
Matrix coefficients                      : BT.709

Audio #1
ID                                       : 2
Format                                   : AC-3
Format/Info                              : Audio Coding 3
Mode extension                           : CM (complete main)
Format settings, Endianness              : Big
Codec ID                                 : A_AC3
Duration                                 : 41mn 20s
Bit rate mode                            : Constant
Bit rate                                 : 448 Kbps
Channel(s)                               : 6 channels
Channel positions                        : Front: L C R, Side: L R, LFE
Sampling rate                            : 48.0 KHz
Bit depth                                : 16 bits
Compression mode                         : Lossy
Stream size                              : 132 MiB (5%)
Language                                 : German
Default                                  : Yes
Forced                                   : No

Audio #2
ID                                       : 3
Format                                   : AC-3
Format/Info                              : Audio Coding 3
Mode extension                           : CM (complete main)
Format settings, Endianness              : Big
Codec ID                                 : A_AC3
Duration                                 : 41mn 20s
Bit rate mode                            : Constant
Bit rate                                 : 448 Kbps
Channel(s)                               : 6 channels
Channel positions                        : Front: L C R, Side: L R, LFE
Sampling rate                            : 48.0 KHz
Bit depth                                : 16 bits
Compression mode                         : Lossy
Stream size                              : 132 MiB (5%)
Language                                 : English
Default                                  : No
Forced                                   : No

Text
ID                                       : 4
Format                                   : UTF-8
Codec ID                                 : S_TEXT/UTF8
Codec ID/Info                            : UTF-8 Plain Text
Language                                 : English
Default                                  : No
Forced                                   : No



Download:
Share-Online.biz Share-Online.bizShare-Online.bizShare-Online.biz | Rapidgator.net Rapidgator.netRapidgator.netRapidgator.net
 

Kommentare